#TITLE:Dawn of Victory;
#SUBTITLE:~Magna Trick Original~;
#ARTIST:Rhapsody;
#TITLETRANSLIT:;
#SUBTITLETRANSLIT:;
#ARTISTTRANSLIT:;
#CREDIT:Magna Trick;
#BANNER:Dawn of Victory-BN.jpg;
#BACKGROUND:Dawn of Victory-BG.jpg;
#LYRICSPATH:;
#CDTITLE:Magnakcd.png;
#MUSIC:Rhapsody - Dawn Of Victory.mp3;
#OFFSET:-3.662;
#SAMPLESTART:34.860;
#SAMPLELENGTH:12.000;
#SELECTABLE:YES;
#BPMS:0.000=190.000,262.000=95.000,270.000=190.000,449.000=95.000,457.000=190.000,740.000=95.000,748.000=190.000,780.000=95.000,788.000=190.000,804.000=95.000,818.000=47.500,819.000=95.000,826.000=142.760,828.500=190.000;
#STOPS:176.000=0.315
,223.000=0.316
,410.000=0.316
,701.000=0.316
;
#BGCHANGES:;
// cache tags:
#FIRSTBEAT:0.000;
#LASTBEAT:828.500;
#SONGFILENAME:Songs/Music V.I.P ^_^/(Magna Trick) Dawn of Victory/Dawn of Victory.sm;
#HASMUSIC:1;
#HASBANNER:1;
#MUSICLENGTH:290.612;
// end cache tags

//---------------dance-single - ----------------
#NOTES:
     dance-single:
     :
     Hard:
     10:
     0.902,1.000,0.929,0.537,0.728,1408.000,270.000,156.000,0.000,26.000:
1001
0200
2300
3002
,
0113
0000
0002
0000
0013
0100
1000
0001
,
0101
2000
3002
2003
,
3110
0000
0200
0000
1300
0001
0100
0000
,
0101
0002
0023
0230
,
1301
0000
0020
0000
0130
1000
0100
0001
,
0110
2000
3200
2300
,
3101
0000
0000
0000
0002
0000
0000
0000
0013
0100
1000
0100
0010
0001
0100
0000
,
1001
0010
0001
1100
1100
0010
0100
1000
,
0010
1000
0101
0011
0011
1000
0110
0001
,
1100
0010
0001
0100
0010
1000
0001
0010
,
0100
1000
0010
1000
0001
0100
0010
1000
,
0101
0010
0100
0011
0011
1000
0110
0001
,
0010
0001
1100
0010
0100
1000
0110
1000
,
0101
0010
1000
0001
0010
0100
1000
0100
,
0011
0100
0010
0001
0100
0010
1000
0001
,
1100
0010
1000
0101
0101
0010
0100
1000
,
0010
0100
0011
0011
0110
0001
1100
0001
,
1010
0100
0010
0001
0100
0010
1000
0001
,
0010
0100
1000
0010
0100
0001
1000
0010
,
1001
0100
0010
0101
0101
1000
0011
1000
,
0100
0001
0110
0001
0010
0001
1100
0010
,
1001
0100
0010
0001
0100
0010
1000
0001
,
0110
0001
0010
0100
1000
0100
0010
0100
,
1001
0000
0000
0000
0000
0000
0100
0000
1000
0000
0100
0000
1000
0000
0100
1000
,
0002
0000
0003
0001
0202
0000
0303
0001
,
0022
0000
0033
0100
1000
0010
0100
0001
,
0220
0000
0330
0100
2200
0000
3300
0001
,
0202
0000
0303
0001
0010
0100
1000
0010
,
0200
0000
0000
0300
0110
0000
0000
0000
,
0011
1000
0100
1000
0001
0100
0001
0010
0100
1000
0001
1000
,
0101
0110
1001
1100
,
0210
0000
0000
0000
0302
0000
0000
0003
,
0100
1000
0100
0010
0100
0010
0001
0100
0010
1000
0010
0100
0001
0010
0100
1000
,
0010
0100
0001
0010
0100
1000
0001
1000
0010
0100
0001
1000
0001
0010
0100
1000
,
0101
0000
0000
0101
0000
0000
0011
0000
0011
0000
0000
0110
0000
0000
1100
0000
,
0110
0000
0000
0011
0000
0000
1100
0000
2002
0000
0000
0000
0000
0000
0000
0000
,
0000
0000
0000
0000
3003
0000
0000
0000
0001
0100
0001
1000
0010
1000
0001
0010
,
0100
0010
0001
1000
0010
0100
0001
0010
0100
1000
0010
1000
0100
0010
0001
0100
,
0010
1000
0001
0010
0100
1000
0010
0100
1001
0000
0000
1010
0000
0000
1100
0000
,
1100
0000
0000
0110
0000
0000
0011
0000
0110
0000
0000
1100
0000
0000
0011
0000
,
2002
0000
3003
1001
,
0100
1000
1001
0100
0001
0010
0101
0010
,
0001
1000
1010
0100
0001
0010
0101
1000
,
0012
0000
0000
0000
2003
0000
0000
0000
0000
0000
3000
0000
1000
0010
1000
0001
,
0100
0001
1000
0100
0010
0100
1000
0001
0100
0010
1000
0100
0010
0001
0100
0001
,
0010
0100
1000
0010
0100
0001
1000
0100
0010
0001
0100
0010
1001
0000
0000
0101
,
0000
0000
0011
0000
0011
0000
0000
0110
0000
0000
1100
0000
0110
0000
0000
0011
,
0000
1100
2002
0000
0000
0000
0000
0000
,
3003
0000
0000
0000
0010
0001
0010
0100
1000
0100
0010
0001
0100
0010
1000
0100
,
1000
0001
0010
0100
1000
0100
1000
0001
0010
0100
0010
0001
1000
0100
0010
0001
,
0010
0100
1000
0001
0110
0000
0000
1100
0000
0000
0101
0000
0101
0000
0000
1001
,
0000
0000
1010
0000
1001
0000
0000
0101
0000
0000
1010
0000
2002
0000
0000
0000
,
0000
0000
3003
0000
0110
0000
1001
0100
,
1001
0100
0010
0001
1100
0001
0010
0100
,
1010
0001
0100
0010
1100
0001
2100
0000
,
3002
0000
0023
0000
,
0230
0000
2300
0000
,
0000
3200
2300
0000
,
3002
0000
0023
0000
,
0000
0230
2300
0000
,
0000
0000
3002
0000
,
0000
0023
0230
0000
,
2300
0000
3002
0000
,
0000
0203
0320
0000
,
0000
0000
0000
0000
0000
0000
0000
0000
0000
0000
0000
0000
1031
0000
0000
0100
1000
0001
1000
0000
0000
0100
1000
0001
,
1000
0000
0000
0100
1000
0001
1000
0100
1000
0001
1000
0100
1000
0000
0000
0001
1000
0100
1000
0000
0000
0001
1000
0100
,
1000
0000
0000
0001
1000
0100
1000
0001
1000
0100
1000
0001
2000
0000
0000
0000
0000
0000
0000
0000
0000
0000
0000
0000
,
0000
0000
3002
0000
,
0000
0000
0000
0003
0001
1000
0100
1000
,
0001
0100
0001
0010
0200
0000
0000
0000
,
2300
0000
3102
0000
,
0000
0000
0213
0000
,
0000
0000
0321
0000
,
0000
0000
2130
0000
,
0000
0000
3012
0203
,
0320
2030
3110
2000
,
3100
0010
0001
1000
1010
0000
0002
0000
,
2003
3002
0113
0020
,
0031
1000
0010
0000
1010
0000
2000
0000
,
3200
0320
1031
0200
,
0310
0001
0010
1000
0110
0000
0002
0000
,
0023
0032
1013
2000
,
3100
0010
0001
0010
0100
1000
0010
0000
1001
0000
0100
0000
1000
0000
0011
0000
,
0011
0100
0010
0001
0100
0001
1010
1100
,
1100
0001
0110
1000
0011
0100
1000
0010
,
0100
0001
1000
0100
0010
0001
0100
0001
,
1000
0010
0100
0001
1010
0100
0010
1100
,
1100
0001
0110
1000
0100
1000
0011
0100
,
0010
0001
0110
0001
1010
0100
0001
1000
,
0100
0010
0001
0010
1100
0010
0100
1000
,
0010
0000
0100
0000
0001
0000
0001
0000
0010
0001
0010
0100
0010
0100
1000
0010
,
0100
0001
0100
0010
1000
0100
0010
0001
0100
0010
1000
0100
0010
0001
1000
0001
,
0100
0010
1000
0001
1000
0100
0010
0001
1010
0000
0000
1010
0000
0000
1100
0000
,
1100
0000
0000
0110
0000
0000
0011
0000
0110
0000
0000
1100
0000
0000
0011
0000
,
2002
0000
0000
3003
,
0001
1000
0100
1000
0001
0100
0001
0010
0100
0010
0001
1000
0010
0100
0001
0010
,
0100
1000
0010
1000
0100
0010
0001
0100
0010
1000
0001
0010
0100
1000
0010
0100
,
1001
0000
0000
1100
0000
0000
0110
0000
1100
0000
0000
0011
0000
0000
1100
0000
,
0101
0000
0000
0011
0000
0000
0110
0000
2002
0000
0000
0000
0000
0000
0000
0000
,
0000
3003
1001
0000
1100
0100
1010
0001
,
0100
0001
0011
0100
1000
0010
1100
0001
,
0010
0100
1001
0010
1001
0000
2000
0000
,
0000
3200
0000
0320
,
0000
0032
0000
0000
,
2003
3200
0000
0320
,
0000
0032
0000
0000
,
0203
0320
0000
0000
,
0000
2030
0000
0000
,
3200
0320
0000
0032
,
0000
0203
0000
0000
,
0320
2030
0000
0000
,
0000
0000
0000
0000
0000
0000
3001
0000
0000
1000
0100
1000
0001
0000
0000
0100
1000
0001
1000
0000
0000
0100
1000
0001
,
1000
0100
1000
0001
1000
0100
1000
0000
0000
1000
0100
1000
0001
0000
0000
1000
0100
1000
0001
0000
0000
1000
0100
1000
,
0001
1000
0100
1000
0001
1000
0200
0000
0000
0000
0000
0000
0000
0000
0000
0000
0000
0000
0000
0000
0000
0000
0000
0000
,
0000
0302
0000
0000
,
0000
0003
1000
0100
1000
0001
0100
0001
,
0010
0100
2000
0000
0000
0000
3002
0000
,
0000
0213
0000
0000
,
0000
1320
0000
0000
,
0000
2031
0000
0000
,
0000
3012
0000
0000
,
0000
0000
0000
0003
0000
0000
1010
0000
0100
0000
0010
0000
0100
0000
0001
0000
0100
0000
1001
0000
0010
0000
0100
0000
,
0001
0100
0010
0101
1000
0100
1000
0001
0010
1100
0010
0100
,
0001
0100
0010
1100
0001
0100
0001
0010
0001
1010
0001
0010
,
0100
0000
1000
0000
0010
0000
1001
0010
0100
0000
1000
0000
0001
0000
1000
0000
0001
0000
0110
0000
0000
0000
0000
0000
,
0000
0000
0000
0101
0010
0100
0010
1000
0010
1001
0100
0010
,
1000
0010
0100
1010
0001
0010
0001
1000
0100
0011
0100
0010
,
1000
0010
0100
0011
1000
0010
1000
0100
1000
0101
1000
0100
,
0010
0000
0001
0000
0100
0000
1001
0100
0010
0000
0001
0000
1000
0000
0001
0000
1000
0000
0110
0000
0000
0000
0000
0000
,
0000
0000
0000
0000
1000
0100
1000
0100
1000
0100
1000
0100
0010
0100
0010
0100
,
0010
0100
0010
0100
0010
0001
0010
0001
0010
0001
0010
0001
0010
0100
0010
0100
,
0010
0100
0010
0100
1000
0100
1000
0100
1000
0100
1000
0100
0010
0001
0010
0001
,
0010
0001
0010
0001
0100
0010
0100
0010
0100
0010
0100
0010
1000
0001
1000
0001
,
1000
0001
1000
0001
0100
0001
0100
0001
0100
0001
0100
0001
1000
0100
1000
0100
,
1000
0100
1000
0100
0010
0001
0010
0001
0010
0001
0010
0001
0100
0010
0100
0010
,
0100
0010
0100
0010
1000
0001
1000
0001
1000
0001
1000
0001
0010
0100
0010
0100
,
0010
0100
0010
0100
1000
0100
1000
0100
1000
0100
1000
0000
0110
0000
1000
0000
,
0001
1000
0110
0000
0001
1000
0100
2000
,
0000
0000
3001
0000
0100
0000
0001
0010
0100
0000
0010
0001
0010
0100
0020
0000
,
0000
0000
0000
0000
0130
0000
0000
0000
0100
0000
1000
0001
0100
0010
1000
0000
,
0000
0001
0010
0100
0010
0001
2000
0000
,
0000
0000
0000
0000
3001
0000
0000
0000
0010
0000
0100
0000
0010
0001
0010
0000
,
0000
0000
0100
0000
1000
0000
1000
0001
0010
0000
0100
0001
1000
0100
2000
0000
,
0000
0000
0000
0000
3100
0000
0000
0000
1000
0000
0001
0000
0100
0001
0010
0000
,
0000
0100
0010
0001
1000
0100
2000
0000
,
0000
0000
0000
3101
0010
0100
0010
1000
0010
1001
0100
0010
,
1000
0010
0100
1010
0001
0010
0001
1000
0100
0011
0100
0010
,
1000
0010
0100
0011
1000
0010
1000
0100
1000
0101
1000
0100
,
0010
0000
0001
0000
0100
0000
1001
0100
0010
0000
0001
0000
1000
0000
0001
0000
1000
0000
0110
0000
0000
0000
0000
0000
,
0000
0000
0000
1010
0100
0010
0100
0001
0100
1001
0010
0100
,
0001
0100
0010
0101
1000
0100
1000
0001
0010
1100
0010
0100
,
0001
0100
0010
1100
0001
0100
0001
0010
0001
1010
0001
0010
,
0100
0000
1000
0000
0010
0000
1001
0010
0100
0000
1000
0000
0001
0000
1000
0000
0001
0000
0110
0000
0000
0000
0000
0000
,
0000
0000
0000
0001
1000
0100
0010
0001
0010
0100
1000
0010
,
0100
0001
0010
0100
1000
0010
1000
0100
0010
0001
0100
0010
,
1000
0001
0010
0200
0000
0000
0000
0000
0000
2300
0000
0000
,
0000
0000
3101
0010
1000
0011
0100
1000
,
0011
1000
0110
0001
0010
1100
0010
0100
,
1001
0010
0101
1000
0100
0011
1000
0001
,
0110
0000
0000
1000
0000
0000
0011
0000
0000
0000
1100
0000
0000
0000
1010
0000
0000
0000
0101
0000
0000
0000
0011
0000
,
0000
0000
0110
0000
0000
0000
1001
0000
0000
0100
0000
0000
0010
0000
0000
1001
0000
0000
0100
0000
0000
0010
0000
0000
,
1001
0010
0101
0010
1000
0101
0010
0100
,
0011
1000
0110
1000
0010
0101
1000
0010
,
1001
0000
0000
0100
0000
0000
0011
0000
0000
0000
1100
0000
0000
0000
0110
0000
0000
0000
0011
0000
0000
1000
0000
0000
,
0100
0010
1001
0100
0010
1100
0001
0010
,
0101
1000
0011
1000
0001
0110
0001
0100
,
1001
0010
0101
1000
0001
0110
1000
0010
,
1001
0000
0000
0100
0000
0000
1010
0000
0000
0000
0101
0000
0000
0000
1010
0000
0000
0000
0110
0000
0000
0000
1001
0000
,
0000
0000
0101
0000
0000
0000
0110
0000
0000
0001
0000
0000
0100
0000
0000
1010
0000
0000
0001
0000
0000
0010
0000
0000
,
1100
0010
1001
0100
0010
0101
1000
0100
,
0011
1000
0110
0001
0010
1100
0010
0100
,
1001
0000
0000
0010
0000
0000
0101
0000
0000
0000
0110
0000
0000
0000
1100
0000
0000
0000
2002
0000
0000
0000
0000
0000
,
3003
0000
1100
0001
0100
0011
0100
0010
,
0011
0100
1010
0001
0100
1001
0100
1000
,
1001
0100
0012
0000
2003
0000
0000
0000
,
3200
0000
0320
0000
,
0032
0000
0000
0203
,
0320
0000
2030
0000
,
3200
0000
0000
0320
,
0032
0000
0000
0000
,
0203
0000
0000
0320
,
2030
0000
3200
0000
,
0320
0000
0000
0032
,
0203
0000
0000
0000
,
0310
0000
0000
1000
0001
1000
0100
0000
0000
1000
0001
1000
0100
0000
0000
0100
1000
0001
1000
0100
1000
0010
1000
0001
,
1000
0000
0000
0100
1000
0001
1000
0000
0000
0100
1000
0001
1000
0000
0000
0100
1000
0001
1000
0010
1000
0100
1000
0001
,
2000
0000
0000
0000
,
3200
0000
0000
0000
0000
0000
0000
0300
,
0010
0001
0100
0010
1000
0001
0010
0100
,
2000
0000
3002
0000
,
0213
0000
0000
0000
,
1320
0000
0000
0000
,
2031
0000
0000
0000
,
3102
0000
0000
0000
,
1013
0000
0000
1000
0010
1000
0001
0000
0000
1000
0100
1000
0001
0000
0000
0100
1000
0001
1000
0100
1000
0010
1000
0001
,
1000
0000
0000
0010
1000
0001
1000
0000
0000
0010
1000
0001
1000
0000
0000
0100
1000
0001
1000
0010
1000
0001
1000
0100
,
2000
0000
0000
0000
,
3200
0000
0000
0000
0000
0000
0000
0300
,
0010
0001
0100
0010
1000
0001
0010
0100
,
2000
0000
0000
0000
3002
0000
0000
0003
,
0200
0000
0000
0000
0000
0000
0000
0000
0000
0000
0000
0000
0000
0000
0300
0020
,
0000
0000
0000
0000
0000
0000
0000
2030
,
0000
0000
0000
0000
0000
0000
0000
3002
,
0000
0000
0000
2103
,
0000
0000
0000
0000
,
0000
0000
0000
0000
,
3000
1001
0000
0000
0000
0000
0000
0000
;

//---------------dance-single - ----------------
#NOTES:
     dance-single:
     :
     Challenge:
     11:
     1.000,1.000,1.000,0.210,1.000,2073.000,360.000,61.000,0.000,21.000:
1001
0010
0100
1000
0100
0010
0100
0010
0001
0100
0010
0100
0010
1000
0001
1000
,
0110
1000
0002
1000
0113
1100
1010
0101
,
1001
0100
1000
0001
1000
0001
1000
0001
0100
0010
1000
0010
1000
0100
0010
0100
,
1001
0010
0200
0010
1301
0011
1100
0010
,
0101
1000
0100
0010
0001
0010
0001
0100
0010
0100
0010
1000
0100
0010
0100
0010
,
1001
0100
0020
0001
0131
1001
0110
1010
,
1001
0010
0100
1000
0100
0010
0100
0010
0001
0100
0010
0100
0010
1000
0001
1000
,
0101
0000
0010
0000
1002
0000
0100
0000
0013
1000
0100
0010
0001
0100
0010
1000
,
0001
1000
0001
1000
0100
0010
0100
0010
0001
0100
0001
0100
0010
1000
0010
1000
,
0100
0010
0100
0010
0001
1000
0001
1000
0010
0100
0001
0010
0001
0100
0010
1000
,
0100
0010
0100
0010
0001
0100
0001
0100
0010
1000
0010
1000
0001
0100
0001
0100
,
0010
1000
0010
1000
0001
0010
0001
0010
0100
1000
0100
0010
0001
0100
0010
1000
,
0100
0010
0100
0010
0001
0100
0001
0100
0010
1000
0010
1000
0100
0010
0100
0010
,
0001
0100
0001
0100
0010
0001
0010
0001
1000
0100
0001
0010
1000
0010
0001
1000
,
0001
0100
0001
0100
0010
1000
0010
1000
0001
0010
0001
0010
0100
1000
0100
1000
,
0010
0100
0010
0100
0001
1000
0001
1000
0100
0010
0001
0100
0010
1000
0001
0010
,
0100
1000
0100
1000
0001
0100
0001
0100
0010
1000
0010
1000
0001
0010
0001
0010
,
0100
1000
0100
1000
0001
0100
0001
0100
0010
1000
0001
0010
0100
1000
0100
0010
,
0001
0100
0001
0100
0010
1000
0010
1000
0001
0010
0001
0010
0100
1000
0100
1000
,
0010
0100
0010
0100
0001
0010
0001
0010
0100
1000
0010
0100
0001
0010
0001
0010
,
0100
1000
0100
1000
0010
0100
0010
0100
0001
0010
0001
0010
0100
1000
0100
1000
,
0010
0100
0010
0100
0001
1000
0001
1000
0010
0100
0001
0010
0100
1000
0001
0100
,
0010
1000
0001
0010
0100
1000
0100
1000
0001
0100
0001
0100
0010
0001
0010
0001
,
1000
0100
0001
0010
0100
1000
0010
0100
0001
0010
0001
0100
0010
1000
0010
0100
,
0001
0010
0100
1000
0110
0000
0110
0000
1000
0000
0100
0000
1000
0000
0100
1000
,
0012
0100
1003
0001
0102
1000
0103
0001
,
0012
0100
1003
0100
1000
0010
0100
0001
,
0210
0001
0310
0100
2100
0010
3100
0001
,
0102
0010
0103
0001
0010
0100
1000
0010
,
0200
0010
0001
0310
0110
1000
0001
0100
,
0011
1000
0100
1000
0001
0100
0001
0010
0100
1000
0001
1000
,
0101
0110
1001
1100
,
0210
0000
0000
0000
0302
0000
0000
0003
,
0010
0001
0010
0100
0010
0100
1000
0010
0100
0001
0100
0010
1000
0100
0010
0001
,
0100
0010
1000
0100
0010
0001
1000
0001
0100
0010
1000
0001
1000
0100
0010
0001
,
1010
0000
0000
1010
0000
0000
1100
0000
1100
0000
0000
0110
0000
0000
0011
0000
,
0110
0000
0000
1100
0000
0000
0011
0000
2002
0000
0000
0000
0000
0000
0000
0000
,
0000
0000
0000
0000
3003
0000
0000
0000
1000
0010
1000
0001
0100
0001
1000
0100
,
0010
0100
1000
0001
0100
0010
1000
0100
0010
0001
0100
0001
0010
0100
1000
0010
,
0100
0001
1000
0100
0010
0001
0100
0010
1001
0000
0000
0101
0000
0000
0011
0000
,
0011
0000
0000
0110
0000
0000
1100
0000
0110
0000
0000
0011
0000
0000
1100
0000
,
2002
0000
3003
1001
,
0100
1000
1001
0100
0001
0010
0101
0010
,
0001
1000
1010
0100
0001
0010
0101
1000
,
0012
0000
0000
0000
2003
0000
0000
0000
0000
0000
3000
0000
0001
0100
0001
1000
,
0010
1000
0001
0010
0100
0010
0001
1000
0010
0100
0001
0010
0100
1000
0010
1000
,
0100
0010
0001
0100
0010
1000
0001
0010
0100
1000
0010
0100
1001
0000
0000
1010
,
0000
0000
1100
0000
1100
0000
0000
0110
0000
0000
0011
0000
0110
0000
0000
1100
,
0000
0011
2002
0000
0000
0000
0000
0000
,
3003
0000
0000
0000
0100
1000
0100
0010
0001
0010
0100
1000
0010
0100
0001
0010
,
0001
1000
0100
0010
0001
0010
0001
1000
0100
0010
0100
1000
0001
0010
0100
1000
,
0100
0010
0001
1000
0110
0000
0000
0011
0000
0000
1010
0000
1010
0000
0000
1001
,
0000
0000
0101
0000
1001
0000
0000
1010
0000
0000
0101
0000
2002
0000
0000
0000
,
0000
0000
3003
0000
0110
0000
1001
0100
,
1001
0100
0010
0001
1100
0001
0010
0100
,
1010
0001
0100
0010
1100
0001
2100
0000
,
3002
0000
0023
0000
,
0230
0000
0000
0000
1301
0100
0010
0001
,
0100
0010
1100
0010
1001
0010
0100
1000
,
1001
0010
0001
0100
0110
1000
0001
0010
,
0100
1000
0110
0001
1010
0100
0001
0010
,
0100
1000
0010
1000
0011
0010
0100
1000
,
0001
0100
0110
1000
0101
0010
0100
1000
,
0101
1000
0010
0100
0011
0100
1000
0010
,
0100
0001
1100
0010
1001
0100
0010
0001
,
0100
0000
0000
0010
0000
0000
1000
0000
0000
0100
0000
0000
1001
0000
0000
0110
1000
0001
1000
0000
0000
0110
1000
0001
,
1000
0000
0000
0110
1000
0001
1000
0100
1000
0001
1000
0100
1001
0000
0000
0011
1000
0100
1000
0000
0000
0011
1000
0100
,
1000
0000
0000
0011
1000
0100
1000
0001
1000
0100
1000
0001
1100
0000
0000
0100
0000
0000
1000
0000
0000
0001
0000
0000
,
0100
0001
0010
0001
0011
0001
1000
0100
,
1000
0000
0000
0001
0000
0000
0100
0000
0000
0001
0000
0000
0001
0000
0010
0000
0100
0000
1000
0000
0100
0000
0010
0000
,
0001
0000
0100
0000
0010
0000
1000
0000
0001
0000
0010
0000
1100
0000
0000
0010
0000
0000
0001
0000
0000
0100
0000
0000
,
1010
0001
0010
0100
0101
1000
0010
0100
,
0001
1000
0001
0010
0110
1000
0001
0100
,
0010
1000
0001
0100
0101
0010
1000
0001
,
0010
0001
1000
0010
1100
0100
0010
1000
,
0001
0000
0010
0000
0100
0000
1000
0000
1001
0010
0100
1000
0100
0010
0100
0010
,
0001
0100
0010
0100
0010
1000
0001
1000
0110
0000
1000
0000
0002
0000
1000
0000
,
0113
0000
1100
0000
1010
0000
0101
0000
1001
0100
1000
0001
1000
0001
1000
0001
,
0100
0010
1000
0010
1000
0100
0010
0100
1001
0000
0010
0000
0200
0000
0010
0000
,
1301
0000
0011
0000
1100
0000
0010
0000
0101
1000
0100
0010
0001
0010
0001
0100
,
0010
0100
0010
1000
0100
0010
0100
0010
1001
0000
0100
0000
0020
0000
0001
0000
,
0131
0000
1001
0000
0110
0000
1010
0000
1001
0010
0100
1000
0100
0010
0100
0010
,
0001
0100
0010
0100
0010
1000
0001
1000
0101
0000
0010
0000
1002
0000
0100
0000
,
0013
1000
0100
0010
0001
0100
0010
1000
0001
1000
0001
1000
0100
0010
0100
0010
,
0001
0100
0001
0100
0010
1000
0010
1000
0100
0010
0100
0010
0001
1000
0001
1000
,
0010
0100
0001
0010
0001
0100
0010
1000
0100
0010
0100
0010
0001
0100
0001
0100
,
0010
1000
0010
1000
0001
0100
0001
0100
0010
1000
0010
1000
0001
0010
0001
0010
,
0100
1000
0100
0010
0001
0100
0010
1000
0100
0010
0100
0010
0001
0100
0001
0100
,
0010
1000
0010
1000
0100
0010
0100
0010
0001
0100
0001
0100
0010
0001
0010
0001
,
1000
0100
0001
0010
1000
0010
0001
1000
0001
0100
0001
0100
0010
1000
0010
1000
,
0100
0010
0100
0010
0001
0100
0001
0100
0010
1000
0010
1000
0001
0100
0001
0100
,
0010
1000
0100
0010
0001
0100
0010
1000
0101
0010
0100
0010
0100
0010
0001
0100
,
0010
1000
0010
0100
0001
0010
0100
1000
0010
0100
0001
0010
0100
1000
0001
1000
,
0010
0100
0001
1000
0001
0010
0100
1000
0101
0000
0000
1010
0000
0000
1100
0000
,
1100
0000
0000
0110
0000
0000
0011
0000
0110
0000
0000
1100
0000
0000
0011
0000
,
2002
0000
0000
3003
,
1100
0001
0010
0001
1000
0010
1000
0100
0010
0100
1000
0001
0100
0010
1000
0100
,
0010
0001
0100
0001
0010
0100
1000
0010
0100
0001
1000
0100
0010
0001
0100
0010
,
1001
0000
0000
0011
0000
0000
0110
0000
0011
0000
0000
1100
0000
0000
0011
0000
,
1010
0000
0000
1100
0000
0000
0110
0000
2002
0000
0000
0000
0000
0000
0000
0000
,
0000
3003
1001
0000
0011
0010
0101
1000
,
0010
1000
1100
0010
0001
0100
0011
1000
,
0100
0010
1001
0100
1001
0000
2100
0000
,
0000
3201
0000
0321
,
0000
0000
1031
0100
1000
0001
0100
0010
,
1001
0100
1001
0100
0010
0001
0110
0100
,
1000
0010
0101
0001
0010
0100
1000
0010
,
1001
0100
1001
0100
0010
0001
0010
0100
,
1000
0010
0101
0001
0100
0010
1000
0001
,
1100
0100
0011
0100
0010
0001
1010
0001
,
0100
0010
1001
0100
1000
0001
0010
0100
,
0011
0100
1010
0001
0100
0010
1000
0001
,
0010
0000
0000
0100
0000
0000
1001
0000
0000
1010
0100
1000
0001
0000
0000
0110
1000
0001
1000
0000
0000
0110
1000
0001
,
1000
0100
1000
0001
1000
0100
1010
0000
0000
1001
0100
1000
0001
0000
0000
1001
0100
1000
0001
0000
0000
1010
0100
1000
,
0001
1000
0100
1000
0001
1000
1010
0000
0000
0010
0000
0000
1000
0000
0000
0001
0000
0000
0010
0000
0000
0100
0000
0000
,
1000
0010
0101
0001
0010
0100
1000
0010
,
0100
0000
0000
0001
0000
0000
0010
0000
0100
0000
1000
0000
0010
0000
0100
0000
0001
0000
0010
0000
0100
0000
1000
0000
,
0010
0000
0100
0000
0001
0000
0010
0000
0000
1000
0000
0000
0100
0000
0000
1000
0000
0000
0001
0000
0000
0100
0000
0000
,
0001
0010
0110
0001
1000
0010
0100
0001
,
0010
0100
1100
0100
1000
0010
0100
0001
,
0010
0100
0011
0100
0010
0001
1000
0010
,
0100
0001
1100
0100
1000
0001
0100
0001
,
0010
0000
0000
0001
0000
0000
0101
0000
0010
0000
0100
0000
0010
0000
1000
0000
0010
0000
1001
0000
0100
0000
0010
0000
,
1000
0010
0100
1010
0001
0010
0001
1000
0100
0011
0100
0010
,
1000
0010
0100
0011
1000
0010
1000
0100
1000
0101
1000
0100
,
0010
0000
0001
0000
0100
0000
1001
0100
0010
0000
0001
0000
1000
0000
0001
0000
1000
0000
0110
0000
0000
0000
0000
0000
,
0000
0000
0000
1010
0100
0010
0100
0001
0100
1001
0010
0100
,
0001
0100
0010
0101
1000
0100
1000
0001
0010
1100
0010
0100
,
0001
0100
0010
1100
0001
0100
0001
0010
0001
1010
0001
0010
,
0100
0000
1000
0000
0010
0000
1001
0010
0100
0000
1000
0000
0001
0000
1000
0000
0001
0000
0220
0000
0000
0000
0000
0000
,
0330
0000
0000
0000
1000
0001
1000
0001
0010
0100
0010
0100
1000
0010
1000
0010
,
0100
0001
0100
0001
1000
0001
1000
0001
0010
0100
0010
0100
1000
0010
1000
0010
,
0100
0001
0100
0001
1000
0100
1000
0100
0010
0001
0010
0001
0100
0010
0100
0010
,
1000
0010
1000
0100
0010
0100
0010
0100
0010
0001
0100
0001
0100
0010
1000
0100
,
0010
0001
1000
0010
0100
0010
0100
0010
1000
0100
1000
0100
0010
0001
0010
0001
,
1000
0100
1000
0100
0010
0001
0100
0001
0100
0010
1000
0001
1000
0001
0010
0100
,
0010
0100
1000
0010
0100
0010
0100
0010
1000
0100
0010
0100
0010
0001
0100
0001
,
0100
0010
1000
0010
1000
0001
1000
0001
1000
0100
0010
0100
0010
0001
0100
0010
,
1000
0001
1000
0010
1100
0000
0000
0000
1001
0000
1000
0000
0100
0000
2001
0000
,
0000
0000
3001
0000
0110
0000
0001
0010
0100
0000
0010
0001
0010
0100
0021
0000
,
0000
0000
0000
0000
1130
0000
0000
0000
0110
0000
1000
0001
0100
0010
1000
0000
,
0000
1001
0010
0100
0010
0001
2001
0000
,
0000
0000
0000
0000
3101
0000
0000
0000
0010
0000
0100
0000
0010
0001
0120
0000
,
0000
0000
0131
0000
1010
0000
1000
0001
0010
0000
0100
0001
1000
0100
2010
0000
,
0000
0000
0000
0000
3110
0000
0000
0000
1010
0000
0001
0000
0100
0001
1010
0000
,
0000
0101
0010
0001
1000
0100
2010
0000
,
0000
0000
0000
3101
0010
0100
0010
1000
0010
1001
0100
0010
,
1000
0010
0100
1010
0001
0010
0001
1000
0100
0011
0100
0010
,
1000
0010
0100
0011
1000
0010
1000
0100
1000
0101
1000
0100
,
0010
0000
0001
0000
0100
0000
1001
0100
0010
0000
0001
0000
1000
0000
0001
0000
1000
0000
0220
0000
0000
0000
0000
0000
,
0330
0000
0000
1010
0100
0010
0100
0001
0100
1001
0010
0100
,
0001
0100
0010
0101
1000
0100
1000
0001
0010
1100
0010
0100
,
0001
0100
0010
1100
0001
0100
0001
0010
0001
1010
0001
0010
,
0100
0000
1000
0000
0010
0000
1001
0010
0100
0000
1000
0000
0001
0000
1000
0000
0001
0000
0110
0000
0000
0000
0000
0000
,
0000
0000
0000
0001
1000
0100
0010
0001
0010
0100
1000
0010
,
0100
0001
0010
0100
1000
0010
1000
0100
0010
0001
0100
0010
,
1000
0001
0010
0200
0000
0000
0000
0000
0000
2300
0000
0000
,
0000
0000
3011
0100
0001
1100
0010
0001
,
1100
0001
0110
1000
0100
0011
0100
0010
,
1001
0100
1010
0001
0010
1100
0001
1000
,
0110
0000
0000
0001
0000
0000
1100
0000
0000
0000
0011
0000
0000
0000
0101
0000
0000
0000
1010
0000
0000
0000
1100
0000
,
0000
0000
0110
0000
0000
0000
1001
0000
0000
0010
0000
0000
0100
0000
0000
1001
0000
0000
0010
0000
0000
0100
0000
0000
,
1001
0100
1010
0100
0001
1010
0100
0010
,
1100
0001
0110
0001
0100
1010
0001
0100
,
1001
0000
0000
0010
0000
0000
1100
0000
0000
0000
0011
0000
0000
0000
0110
0000
0000
0000
1100
0000
0000
0001
0000
0000
,
0010
0100
1001
0010
0100
0011
1000
0100
,
1010
0001
1100
0001
1000
0110
1000
0010
,
1001
0100
1010
0001
1000
0110
0001
0100
,
1001
0000
0000
0010
0000
0000
0101
0000
0000
0000
1010
0000
0000
0000
0101
0000
0000
0000
0110
0000
0000
0000
1001
0000
,
0000
0000
1010
0000
0000
0000
0110
0000
0000
1000
0000
0000
0010
0000
0000
0101
0000
0000
1000
0000
0000
0100
0000
0000
,
0011
0100
1001
0010
0100
1010
0001
0010
,
1100
0001
0110
1000
0100
0011
0100
0010
,
1001
0000
0000
0100
0000
0000
1010
0000
0000
0000
0110
0000
0000
0000
0011
0000
0000
0000
2002
0000
0000
0000
0000
0000
,
3003
0000
1100
0001
0100
0011
0100
0010
,
0011
0100
1010
0001
0100
1001
0100
1000
,
1001
0100
0012
0000
2103
0000
0000
0000
,
3012
0000
0213
0000
,
0311
0100
1000
0010
0100
0001
0110
0100
,
1010
0010
0100
0001
0110
0100
1000
0001
,
0110
0001
1000
0100
0010
0001
0110
0001
,
0110
0001
1000
0010
1000
0001
1000
0100
,
1001
0001
0100
0001
0010
0100
0011
0100
,
1001
0010
0100
0001
1010
0001
1000
0100
,
0011
0100
0010
0001
0100
0010
0101
0010
,
1001
0100
0010
0001
0010
0100
1000
0001
,
0101
0000
0000
1010
0001
1000
0100
0000
0000
1010
0001
1000
0100
0000
0000
0110
1000
0001
1000
0100
1000
0010
1000
0001
,
1010
0000
0000
0110
1000
0001
1000
0000
0000
0110
1000
0001
1000
0000
0000
0110
1000
0001
1000
0010
1000
0100
1000
0001
,
1010
0100
0010
0001
0100
0010
1000
0001
,
0110
1000
0001
0100
0010
1000
0001
0010
,
0100
0010
0001
0100
0010
1000
0001
0010
0100
0010
0100
1000
,
0110
0001
0100
0010
1001
0100
0010
1000
,
0101
0001
0010
0100
1000
0010
0100
0001
,
1010
0001
1000
0010
0100
0001
0010
0100
,
1001
0100
0010
0001
0100
0010
1000
0001
,
0101
0010
0100
1000
0001
0100
0010
1000
,
1010
0000
0000
1001
0010
1000
0001
0000
0000
1001
0100
1000
0001
0000
0000
0110
1000
0001
1000
0100
1000
0010
1000
0001
,
1100
0000
0000
0110
1000
0001
1000
0000
0000
0110
1000
0001
1000
0000
0000
0110
1000
0001
1000
0010
1000
0001
1000
0100
,
1010
0100
0010
0001
0100
0010
1000
0001
,
0110
1000
0001
0100
0010
1000
0001
0010
,
0100
1000
0100
0010
0001
0010
0001
0100
0010
1000
0010
1000
,
0101
0010
0001
0010
0101
0010
1000
0001
,
0210
0000
0000
0000
0000
0000
0000
0000
0000
0000
0000
0000
0000
0000
0300
0020
,
0000
0000
0000
0000
0000
0000
0000
2030
,
0000
0000
0000
0000
0000
0000
0000
3002
,
0000
0000
0000
2103
,
0000
0000
0000
0000
,
0000
0000
0000
0000
,
3000
1001
0000
0000
0000
0000
0000
0000
;

//---------------dance-single - ----------------
#NOTES:
     dance-single:
     :
     Edit:
     15:
     1.000,1.000,1.000,0.231,1.000,2256.000,486.000,67.000,0.000,32.000:
1001
0010
0100
1000
0101
0010
0100
0010
1001
0100
0010
0100
0011
1000
0001
1000
,
0110
0001
1000
0001
1100
0010
0001
0010
0101
0000
1100
0000
1010
0000
0101
0000
,
1001
0100
1000
0001
1010
0001
1000
0001
1100
0010
1000
0010
1001
0100
0010
0100
,
1001
0010
0100
0010
0101
1000
0010
0100
1001
0000
0011
0000
1100
0000
0010
0000
,
0101
1000
0100
0010
1001
0010
0001
0100
0011
0100
0010
1000
0101
0010
0100
0010
,
1001
0100
0010
0100
0011
1000
0001
1000
0101
0000
1001
0000
0110
0000
1010
0000
,
1001
0010
0100
1000
0101
0010
0100
0010
1001
0100
0010
0100
0011
1000
0001
1000
,
0101
0000
0010
0000
1002
0000
0100
0000
0013
1000
0100
0010
0001
0100
0010
1000
,
0011
1000
0001
1000
0100
0010
0101
0010
1001
0100
0001
0100
0010
1000
0010
1000
,
0100
0010
0100
0010
0101
1000
0101
1000
0011
0100
0001
0010
1001
0100
0010
1000
,
0101
0010
0100
0010
0001
0100
0001
0100
0010
1000
0010
1000
0001
0100
0001
0100
,
0010
1000
0010
1000
0001
0010
0001
0010
0100
1000
0100
0010
0001
0100
0010
1000
,
0101
0010
0100
0010
0001
0100
0011
0100
0011
1000
0010
1000
0101
0010
0100
0010
,
0001
0100
0001
0100
1010
0001
0010
0001
1000
0100
0001
0010
1100
0010
0001
1000
,
0011
0100
0001
0100
0010
1000
0010
1000
0001
0010
0001
0010
0100
1000
0100
1000
,
0011
0100
0010
0100
0001
1000
0001
1000
0100
0010
0001
0100
0010
1000
0001
0010
,
0101
1000
0100
1000
0001
0100
0011
0100
0011
1000
0010
1000
0001
0010
0001
0010
,
0100
1000
0100
1000
0011
0100
0011
0100
0011
1000
0001
0010
0101
1000
0100
0010
,
1001
0100
0001
0100
0010
1000
0010
1000
0001
0010
0001
0010
0100
1000
0100
1000
,
0010
0100
0010
0100
0001
0010
0001
0010
0100
1000
0010
0100
0001
0010
0001
0010
,
0101
1000
0100
1000
0010
0100
0011
0100
1001
0010
0001
0010
0101
1000
0100
1000
,
0010
0100
0010
0100
0011
1000
0001
1000
0010
0100
0001
0010
0101
1000
0001
0100
,
0011
1000
0001
0010
0100
1000
0100
1000
0001
0100
0001
0100
0010
0001
0010
0001
,
1010
0100
0001
0010
0100
1000
0010
0100
0001
0010
0001
0100
0010
1000
0010
0100
,
1001
0010
0100
1000
0110
0000
0110
0000
1000
0000
0100
0000
1001
0000
0100
1000
,
0012
0100
1013
2001
3102
1000
0113
2001
,
3012
0100
1013
0100
1000
0010
1100
0001
,
0210
0001
0311
0102
2103
0010
3110
2001
,
3102
0010
1103
0001
0010
0100
1001
0010
,
1200
0010
1301
0010
0210
1000
0311
0100
,
0011
1000
0100
1000
0001
0100
0001
0010
0100
1000
0001
1000
,
0102
0213
1302
2103
,
3210
0000
0000
0000
0302
0000
0000
0003
,
1010
0001
0010
0100
0010
0100
1000
0010
0100
0001
0100
0010
1000
0100
0010
0001
,
0100
0010
1000
0100
0010
0001
1000
0001
0100
0010
1000
0001
1000
0100
0010
0001
,
1010
0000
0000
1010
0000
0000
1100
0000
1100
0000
0000
0110
0000
0000
0011
0000
,
0110
0000
0000
1100
0000
0000
0011
0000
2002
0000
0000
0000
0000
0000
0000
0000
,
0000
0000
0000
0000
3003
0000
0000
0000
1100
0010
1000
0001
0100
0001
1000
0100
,
0010
0100
1000
0001
0100
0010
1000
0100
0010
0001
0100
0001
0010
0100
1000
0010
,
0100
0001
1000
0100
0010
0001
0100
0010
1001
0000
0000
0101
0000
0000
0011
0000
,
0011
0000
0000
0110
0000
0000
1100
0000
0110
0000
0000
0011
0000
0000
1100
0000
,
2002
0000
3003
1001
,
0100
1000
1001
0100
0001
0010
0101
0010
,
0001
1000
1010
0100
0001
0010
0101
1000
,
0012
0000
0000
0000
2003
0000
0000
0000
0000
0000
3000
0000
0011
0100
0001
1000
,
0010
1000
0001
0010
0100
0010
0001
1000
0010
0100
0001
0010
0100
1000
0010
1000
,
0100
0010
0001
0100
0010
1000
0001
0010
0100
1000
0010
0100
1001
0000
0000
1010
,
0000
0000
1100
0000
1100
0000
0000
0110
0000
0000
0011
0000
0110
0000
0000
1100
,
0000
0011
2002
0000
0000
0000
0000
0000
,
3003
0000
0000
0000
0110
1000
0100
0010
0001
0010
0100
1000
0010
0100
0001
0010
,
0001
1000
0100
0010
0001
0010
0001
1000
0100
0010
0100
1000
0001
0010
0100
1000
,
0100
0010
0001
1000
0110
0000
0000
0011
0000
0000
1010
0000
1010
0000
0000
1001
,
0000
0000
0101
0000
1001
0000
0000
1010
0000
0000
0101
0000
2002
0000
0000
0000
,
0000
0000
3003
0000
0110
0000
1001
0100
,
1001
0100
0010
0001
1100
0001
0010
0100
,
1010
0001
0100
0010
1100
0001
2100
0000
,
3002
0000
0023
0000
,
0230
0000
0000
0000
0000
0000
1301
0100
0010
0001
0100
0010
,
0100
0010
1000
0101
0010
1000
0101
0010
0100
0010
1000
0001
,
1010
0100
0010
0001
0100
0010
1100
0010
0001
0010
0100
1000
,
0100
0010
0001
0110
0001
0100
1010
0100
1000
0001
0010
0100
,
1000
0100
0010
0001
0100
0010
1001
0100
0010
0100
0010
0001
,
0100
0010
1000
0110
0001
0010
0101
0010
0100
1000
0010
0100
,
1001
0010
0100
0010
0001
0010
0101
0010
0100
1000
0100
0010
,
0100
0010
0001
1100
0010
0100
1001
0010
0100
0010
0100
0001
,
0010
0000
0100
0000
1000
0000
0001
0000
0100
0000
0010
0000
1001
0000
0000
0110
1000
0001
1000
0000
0000
0110
1000
0001
,
1000
0000
0000
0110
1000
0001
1000
0100
1000
0001
1000
0100
1001
0000
0000
0011
1000
0100
1000
0000
0000
0011
1000
0100
,
1000
0000
0000
0011
1000
0100
1000
0001
1000
0100
1000
0001
1100
0000
0000
0100
0000
0000
1000
0000
0000
0001
0000
0000
,
0100
0001
0010
0001
0011
0001
1000
0100
,
1000
0000
0000
0001
0000
0000
0100
0000
0000
0001
0000
0000
0001
0000
0010
0000
0100
0000
1000
0000
0100
0000
0010
0000
,
0001
0000
0000
0000
0100
0000
0000
0000
0010
0000
0000
0000
1000
0000
0000
0000
0001
0000
0000
0000
0010
0000
0000
0000
1100
0000
0000
0010
0000
0000
0001
0000
0000
0100
0000
0000
0010
0000
0000
1000
0000
0000
0100
0000
0000
0010
0000
0000
,
1001
0010
0100
1000
0010
0100
0001
0010
1100
0000
1000
0000
0011
0000
0101
0000
,
0011
1000
0001
0010
0110
1000
0010
0100
,
0001
1000
0001
0100
0101
0010
1001
0101
,
1010
0001
1001
0010
1100
0100
0010
1000
,
0001
0000
0010
0000
0100
0000
1000
0000
1001
0010
0100
1000
0101
0010
0100
0010
,
1001
0100
0010
0100
0011
1000
0001
1000
0110
0001
1000
0001
0110
0001
1000
0001
,
0110
0000
1100
0000
1010
0000
0101
0000
1001
0100
1000
0001
1010
0001
1000
0001
,
1100
0010
1000
0010
1001
0100
0010
0100
1001
0100
0010
0100
1001
0010
0100
0010
,
1001
0000
0011
0000
1100
0000
0010
0000
0101
1000
0100
0010
1001
0010
0001
0100
,
1010
0100
0010
1000
0101
0010
0100
0010
1001
0100
0010
0100
0011
1000
0100
1000
,
0101
0000
1001
0000
0110
0000
1010
0000
1001
0010
0100
1000
0101
0010
0100
0010
,
1001
0100
0010
0100
0011
1000
0001
1000
0101
0000
0010
0000
1002
0000
0100
0000
,
0113
1000
0101
0010
1001
0100
0010
1000
0011
1000
0001
1000
0100
0010
1100
0010
,
1001
0100
0001
0100
0010
1000
0010
1000
0100
0010
0100
0010
0101
1000
0101
1000
,
0011
0100
0001
0010
1001
0100
0010
1000
0101
0010
0100
0010
0001
0100
0001
0100
,
0010
1000
0010
1000
0001
0100
0001
0100
0010
1000
0010
1000
0100
0010
0001
0010
,
0100
1000
0001
0010
0001
0100
0010
1000
0101
0010
0100
0010
0001
0100
1001
0100
,
0011
1000
0010
1000
0101
0010
0100
0010
0001
0100
0001
0100
1010
0001
0010
0001
,
1000
0100
0001
0010
1100
0010
0001
1000
0011
0100
0001
0100
0010
1000
0010
1000
,
0100
0010
0100
0010
0001
0100
0001
0100
0011
1000
0010
1000
0001
0100
0001
0100
,
0010
1000
0100
0010
0001
0100
0010
1000
0101
0010
0100
0010
0100
0010
0001
0100
,
0010
1000
0010
0100
0001
0010
0100
1000
0010
0100
0001
0010
0100
1000
0001
1000
,
0010
0100
0001
1000
0001
0010
0100
1000
0101
0000
0000
1010
0000
0000
1100
0000
,
1100
0000
0000
0110
0000
0000
0011
0000
0110
0000
0000
1100
0000
0000
0011
0000
,
2002
0000
0000
3003
,
1100
0001
0010
0001
1000
0010
1000
0100
0010
0100
1000
0001
0100
0010
1000
0100
,
0010
0001
0100
0001
0010
0100
1000
0010
0100
0001
1000
0100
0010
0001
0100
0010
,
1001
0000
0000
0011
0000
0000
0110
0000
0011
0000
0000
1100
0000
0000
0011
0000
,
1010
0000
0000
1100
0000
0000
0110
0000
2002
0000
0000
0000
0000
0000
0000
0000
,
0000
3003
1001
0000
0011
0010
0101
1000
,
0010
1000
1100
0010
0001
0100
0011
1000
,
0100
0010
1001
0100
1001
0000
2100
0000
,
0000
3201
0000
0321
,
0000
0000
0000
1031
0010
0100
1000
0010
0100
0010
0100
0001
,
1010
0100
0001
1010
0100
0010
0100
0001
1000
0101
0010
0100
,
1000
0010
0100
0011
0100
1000
0100
0010
0001
0010
0100
1000
,
0110
1000
0010
0101
0010
0001
1000
0100
0010
0001
0010
0100
,
1000
0010
0100
1001
0010
0100
0010
0100
1000
0010
0100
0001
,
0110
1000
0100
1010
0100
0010
0001
0100
0010
1001
0100
0010
,
0100
1000
0100
1010
0100
0010
0001
0010
0100
0010
0100
1000
,
0011
0100
0010
1001
0100
0010
0100
0010
1000
0100
0010
0001
,
1000
0000
0010
0000
0100
0000
1001
0000
0000
1010
0100
1000
0001
0000
0000
0110
1000
0001
1000
0000
0000
0110
1000
0001
,
1000
0100
1000
0001
1000
0100
1010
0000
0000
1001
0100
1000
0001
0000
0000
1001
0100
1000
0001
0000
0000
1010
0100
1000
,
0001
1000
0100
1000
0001
1000
1010
0000
0000
0010
0000
0000
1000
0000
0000
0001
0000
0000
0010
0000
0000
0100
0000
0000
,
1000
0010
0101
0001
0010
0100
1000
0010
,
0100
0000
0000
0001
0000
0000
0010
0000
0100
0000
1000
0000
0010
0000
0100
0000
0001
0000
0010
0000
0100
0000
1000
0000
,
0010
0000
0100
0000
0001
0000
0010
0000
0000
1000
0000
0000
0100
0000
0000
1000
0000
0000
0001
0000
0000
0100
0000
0000
,
0001
0010
0100
1000
0110
0000
0001
0000
1100
0000
0110
0000
0101
0000
0001
0000
,
0010
0100
1100
0100
1000
0010
0100
0001
,
0010
0100
0011
0100
1010
0011
1100
0010
,
0101
0001
1100
0100
1000
0001
0100
0001
,
0010
0000
0000
0001
0000
0000
0101
0000
0010
0000
0100
0000
0010
0000
1000
0000
0010
0000
1001
0000
0100
0000
0010
0000
,
1000
0010
0100
1010
0001
0010
0001
1000
0100
0011
0100
0010
,
1000
0010
0100
0011
1000
0010
1000
0100
1000
0101
1000
0100
,
0010
0000
0001
0000
0100
0000
1001
0100
0010
0000
0001
0000
1000
0000
0001
0000
1000
0000
0110
0000
0000
0000
0000
0000
,
0000
0000
0000
1010
0100
0010
0100
0001
0100
1001
0010
0100
,
0001
0100
0010
0101
1000
0100
1000
0001
0010
1100
0010
0100
,
0001
0100
0010
1100
0001
0100
0001
0010
0001
1010
0001
0010
,
0100
0000
1000
0000
0010
0000
1001
0010
0100
0000
1000
0000
0001
0000
1000
0000
0001
0000
0220
0000
0000
0000
0000
0000
,
0330
0000
0000
0000
0000
0000
0000
0000
0000
0000
0000
0000
1000
0000
0100
0000
0010
0000
0001
0000
0000
1000
0000
0000
0001
0000
0010
0000
0100
0000
1000
0000
0000
0001
0000
0000
1000
0000
0100
0000
0010
0000
0001
0000
0000
1000
0000
0000
,
0001
0000
0010
0000
0100
0000
1000
0000
0000
0001
0000
0000
1000
0000
0100
0000
0010
0000
0001
0000
0000
1000
0000
0000
0001
0000
0010
0000
0100
0000
1000
0000
0000
0001
0000
0000
1000
0000
0100
0000
0010
0000
0001
0000
0000
1000
0000
0000
,
0001
0000
0010
0000
0100
0000
1000
0000
0000
0001
0000
0000
1000
0000
0100
0000
0010
0000
0001
0000
0000
1000
0000
0000
0001
0000
0010
0000
0100
0000
1000
0000
0000
0001
0000
0000
1000
0000
0100
0000
0010
0000
0001
0000
0000
1000
0000
0000
,
0001
0000
0010
0000
0100
0000
1000
0000
0000
0001
0000
0000
1000
0000
0100
0000
0010
0000
0001
0000
0000
1000
0000
0000
0001
0000
0010
0000
0100
0000
1000
0000
0000
0001
0000
0000
1000
0000
0000
0000
0000
0000
0001
0000
0000
0000
0000
0000
,
0001
0000
0000
0000
0000
0000
1000
0000
0000
0000
0000
0000
0001
0000
0010
0000
0100
0000
1000
0000
0000
0001
0000
0000
1000
0000
0100
0000
0010
0000
0001
0000
0000
1000
0000
0000
0001
0000
0010
0000
0100
0000
1000
0000
0000
0001
0000
0000
,
1000
0000
0100
0000
0010
0000
0001
0000
0000
1000
0000
0000
0001
0000
0010
0000
0100
0000
1000
0000
0000
0001
0000
0000
1000
0000
0100
0000
0010
0000
0001
0000
0000
1000
0000
0000
0001
0000
0010
0000
0100
0000
1000
0000
0000
0001
0000
0000
,
1000
0000
0100
0000
0010
0000
0001
0000
0000
1000
0000
0000
0001
0000
0010
0000
0100
0000
1000
0000
0000
0001
0000
0000
1000
0000
0100
0000
0010
0000
0001
0000
0000
1000
0000
0000
0001
0000
0010
0000
0100
0000
1000
0000
0000
0001
0000
0000
,
1000
0000
0100
0000
0010
0000
0001
0000
0000
1000
0000
0000
0001
0000
0010
0000
0100
0000
1000
0000
0000
0001
0000
0000
1000
0000
0100
0000
0010
0000
0001
0000
0000
1000
0000
0000
0001
0000
0000
0000
0000
0000
1000
0000
0000
0000
0000
0000
,
1000
0000
0001
0000
2000
0000
0000
0000
3001
0000
1000
0000
0010
0100
2001
0000
,
0000
0000
3001
0000
0110
0000
0001
0010
0100
0000
0010
0001
0010
0100
0021
0000
,
0000
0000
0000
0000
1130
0000
0000
0000
0110
0000
1000
0001
0100
0010
1000
0000
,
0000
1001
0010
0100
0010
0001
2001
0000
,
0000
0000
0000
0000
3101
0000
0000
0000
0010
0000
0100
0000
0010
0001
0120
0000
,
0000
0000
0131
0000
1010
0000
1000
0001
0010
0000
0100
0001
1000
0100
2010
0000
,
0000
0000
0000
0000
3110
0000
0000
0000
1010
0000
0001
0000
0100
0001
1010
0000
,
0000
0101
0010
0001
1000
0100
2010
0000
,
0000
0000
0000
3101
0010
0100
0010
1000
0010
1001
0100
0010
,
1000
0010
0100
1010
0001
0010
0001
1000
0100
0011
0100
0010
,
1000
0010
0100
0011
1000
0010
1000
0100
1000
0101
1000
0100
,
0010
0000
0001
0000
0100
0000
1001
0100
0010
0000
0001
0000
1000
0000
0001
0000
1000
0000
0220
0000
0000
0000
0000
0000
,
0330
0000
0000
1010
0100
0010
0100
0001
0100
1001
0010
0100
,
0001
0100
0010
0101
1000
0100
1000
0001
0010
1100
0010
0100
,
0001
0100
0010
1100
0001
0100
0001
0010
0001
1010
0001
0010
,
0100
0000
1000
0000
0010
0000
1001
0010
0100
0000
1000
0000
0001
0000
1000
0000
0001
0000
0220
0000
0000
0000
0000
0000
,
0330
0000
0000
1001
1000
0100
0010
0001
0010
0101
1000
0010
,
0100
0001
0010
0101
1000
0010
1000
0100
0010
1001
0100
0010
,
1000
0001
0010
1200
0000
0000
0000
0000
0000
2300
0000
0000
,
0000
0000
3110
0001
0010
0101
1000
0010
,
0101
0010
1001
0100
0001
1010
0001
1000
,
0110
0001
1100
0010
1000
0101
0010
0100
,
1001
0000
0000
0010
0000
0000
0101
0000
0000
0000
1010
0000
0000
0000
0011
0000
0000
0000
1100
0000
0000
0000
0101
0000
,
0000
0000
1001
0000
0000
0000
0110
0000
0000
1000
0000
0000
0001
0000
0000
0110
0000
0000
1000
0000
0000
0001
0000
0000
,
0110
0001
1100
0001
0010
1100
0001
1000
,
0101
0010
1001
0010
0001
1100
0010
0001
,
0110
0000
0000
1000
0000
0000
0101
0000
0000
0000
1010
0000
0000
0000
1001
0000
0000
0000
0101
0000
0000
0010
0000
0000
,
1000
0001
0110
1000
0001
1010
0100
0001
,
1100
0010
0101
0010
0100
1001
0100
1000
,
0110
0001
1100
0010
0100
1001
0010
0001
,
0110
0000
0000
1000
0000
0000
0011
0000
0000
0000
1100
0000
0000
0000
0011
0000
0000
0000
1001
0000
0000
0000
0110
0000
,
0000
0000
1100
0000
0000
0000
1001
0000
0000
0100
0000
0000
1000
0000
0000
0011
0000
0000
0100
0000
0000
0001
0000
0000
,
1010
0001
0110
1000
0001
1100
0010
1000
,
0101
0010
1001
0100
0001
1010
0001
1000
,
0110
0000
0000
0001
0000
0000
1100
0000
0000
0000
1001
0000
0000
0000
1010
0000
0000
0000
0220
0000
0000
0000
0000
0000
,
0330
0000
0101
0010
0001
1010
0001
1000
,
1010
0001
1100
0010
0001
0110
0001
0100
,
0110
0001
0012
0000
2103
0000
0000
0000
,
3012
0000
0213
0000
,
0311
0100
1000
0100
1000
0010
0100
0010
0100
0001
0010
0001
1010
0100
1000
0100
,
1001
0010
0100
0010
0100
0001
0010
0100
1010
0001
0010
0100
1000
0010
0100
0001
,
0110
1000
0001
1000
0001
0100
0010
1000
0010
1000
0001
1000
0110
0001
1000
0001
,
0110
0001
0010
0100
1000
0100
0010
0001
0100
0010
1000
0001
1000
0010
0100
0001
,
1010
0100
0001
0010
0100
1000
0001
0100
0010
1000
0100
0010
1001
0010
0100
0010
,
1001
0100
0010
0001
0100
0010
1000
0100
1010
0100
0010
0001
1000
0010
0100
0010
,
1100
0001
0100
0010
1000
0100
0010
0001
0100
0010
1000
0001
0110
0001
0010
0100
,
1001
0010
0100
1000
0010
0100
0001
1000
0001
0010
0100
1000
0001
0100
0001
1000
,
0101
0000
0000
1010
0001
1000
0100
0000
0000
1010
0001
1000
0100
0000
0000
0110
1000
0001
1000
0100
1000
0010
1000
0001
,
1010
0000
0000
0110
1000
0001
1000
0000
0000
0110
1000
0001
1000
0000
0000
0110
1000
0001
1000
0010
1000
0100
1000
0001
,
1010
0100
0010
0001
0100
0010
1000
0001
,
0110
1000
0001
0100
0010
1000
0001
0010
,
0100
0010
0001
0100
0010
1000
0001
0010
0100
0010
0100
1000
,
0110
0001
0100
0010
1001
0100
0010
1000
,
0101
0001
0011
0110
1100
0010
0100
0001
,
1010
0001
1000
0010
0100
0001
0010
0100
,
1001
0100
0011
0101
0110
0010
1100
0001
,
0101
0010
0100
1000
0001
0100
0010
1000
,
1010
0000
0000
1001
0010
1000
0001
0000
0000
1001
0100
1000
0001
0000
0000
0110
1000
0001
1000
0100
1000
0010
1000
0001
,
1100
0000
0000
0110
1000
0001
1000
0000
0000
0110
1000
0001
1000
0000
0000
0110
1000
0001
1000
0010
1000
0001
1000
0100
,
1010
0100
0010
0001
0100
0010
1000
0001
,
0110
1000
0001
0100
0010
1000
0001
0010
,
0100
1000
0100
0010
0001
0010
0001
0100
0010
1000
0010
1000
,
0101
0010
0001
0010
0101
0010
1000
0001
,
0120
0000
0000
0000
0000
0000
0000
0000
0000
0000
0000
0000
0000
0000
0030
0200
,
0000
0000
0000
0000
0000
0000
0000
0302
,
0000
0000
0000
0000
0000
0000
0000
2003
,
0000
0000
0000
3012
,
0000
0000
0000
0000
,
0000
0000
0000
0000
,
0003
1001
0000
0000
0000
0000
0000
0000
;
